<?xml version="1.0" standalone="no"?>
<!DOCTYPE svg PUBLIC "-//W3C//DTD SVG 1.1//EN" "http://www.w3.org/Graphics/SVG/1.1/DTD/svg11.dtd" >
<svg xmlns="http://www.w3.org/2000/svg">
<metadata>Generated by IcoMoon</metadata>
<defs>
<font id="icomoon" horiz-adv-x="512">
<font-face units-per-em="512" ascent="480" descent="-32" />
<missing-glyph horiz-adv-x="512" />
<glyph unicode="&#x20;" d="" horiz-adv-x="256" />
<glyph unicode="&#xe607;" d="M256 92.16c72.96 0 131.84 58.88 131.84 131.84s-58.88 131.84-131.84 131.84c-72.96 0-131.84-58.88-131.84-131.84s58.88-131.84 131.84-131.84zM227.84 215.040c-8.96 0-15.36 2.56-19.2 8.96-1.28 2.56-1.28 2.56 1.28 3.84s5.12 2.56 8.96 2.56c-10.24 2.56-15.36 7.68-17.92 15.36-1.28 2.56-1.28 2.56 1.28 2.56s5.12 1.28 7.68 1.28c-7.68 5.12-12.8 10.24-14.080 16.64s0 3.84 5.12 2.56c20.48-7.68 39.68-15.36 52.48-28.16 5.12 16.64 11.52 28.16 19.2 35.84 5.12 6.4 8.96 7.68 5.12 1.28 1.28 1.28 3.84 2.56 5.12 3.84 8.96 3.84 8.96 1.28 2.56-3.84 17.92 6.4 16.64-1.28-1.28-5.12 15.36 0 30.72-10.24 35.84-30.72 1.28-2.56 0-2.56 2.56-2.56 6.4-1.28 11.52-1.28 17.92 1.28 0-3.84-6.4-6.4-15.36-8.96-3.84-1.28-3.84 0 0-1.28 5.12-1.28 10.24-1.28 15.36-1.28-3.84-5.12-11.52-7.68-20.48-7.68-5.12-19.2-17.92-34.56-33.28-42.24-37.12-20.48-90.88-17.92-117.76 20.48 17.92-14.080 43.52-16.64 62.72 2.56-10.24-2.56-14.080 7.68-3.84 12.8z" />
<glyph unicode="&#xe608;" d="M387.84 224c0 72.96-58.88 131.84-131.84 131.84s-131.84-58.88-131.84-131.84 58.88-131.84 131.84-131.84 131.84 58.88 131.84 131.84zM180.48 206.080v34.56h58.88v58.88h34.56v-58.88h58.88v-34.56h-58.88v-58.88h-34.56v58.88h-58.88z" />
<glyph unicode="&#xe609;" d="M102.4 330.24h307.2v-25.6h-307.2v25.6zM102.4 240.64h307.2v-25.6h-307.2v25.6zM102.4 151.040h307.2v-25.6h-307.2v25.6z" />
<glyph unicode="&#xe60a;" d="M121.6 232.96h12.8v-12.8h-12.8v12.8zM134.4 220.16h12.8v-12.8h-12.8v12.8zM147.2 207.36h12.8v-12.8h-12.8v12.8zM160 194.56h12.8v-12.8h-12.8v12.8zM172.8 181.76h12.8v-12.8h-12.8v12.8zM185.6 168.96h12.8v-12.8h-12.8v12.8zM198.4 156.16h12.8v-12.8h-12.8v12.8zM211.2 143.36h12.8v-12.8h-12.8v12.8zM224 130.56h12.8v-12.8h-12.8v12.8zM236.8 117.76h12.8v-12.8h-12.8v12.8zM249.6 104.96h12.8v-12.8h-12.8v12.8zM262.4 92.16h12.8v-12.8h-12.8v12.8zM275.2 79.36h12.8v-12.8h-12.8v12.8zM288 66.56h12.8v-12.8h-12.8v12.8zM300.8 53.76h12.8v-12.8h-12.8v12.8zM313.6 40.96h12.8v-12.8h-12.8v12.8zM326.4 28.16h12.8v-12.8h-12.8v12.8zM339.2 15.36h12.8v-12.8h-12.8v12.8zM352 2.56h12.8v-12.8h-12.8v12.8zM364.8-10.24h12.8v-12.8h-12.8v12.8zM313.6 424.96h12.8v-12.8h-12.8v12.8zM300.8 412.16h12.8v-12.8h-12.8v12.8zM288 399.36h12.8v-12.8h-12.8v12.8zM275.2 386.56h12.8v-12.8h-12.8v12.8zM262.4 373.76h12.8v-12.8h-12.8v12.8zM364.8 476.16h12.8v-12.8h-12.8v12.8zM352 463.36h12.8v-12.8h-12.8v12.8zM339.2 450.56h12.8v-12.8h-12.8v12.8zM326.4 437.76h12.8v-12.8h-12.8v12.8zM249.6 360.96h12.8v-12.8h-12.8v12.8zM236.8 348.16h12.8v-12.8h-12.8v12.8zM224 335.36h12.8v-12.8h-12.8v12.8zM211.2 322.56h12.8v-12.8h-12.8v12.8zM198.4 309.76h12.8v-12.8h-12.8v12.8zM185.6 296.96h12.8v-12.8h-12.8v12.8zM172.8 284.16h12.8v-12.8h-12.8v12.8zM160 271.36h12.8v-12.8h-12.8v12.8zM147.2 258.56h12.8v-12.8h-12.8v12.8zM134.4 245.76h12.8v-12.8h-12.8v12.8z" />
<glyph unicode="&#xe60b;" d="M371.2 232.96h12.8v-12.8h-12.8v12.8zM358.4 220.16h12.8v-12.8h-12.8v12.8zM345.6 207.36h12.8v-12.8h-12.8v12.8zM332.8 194.56h12.8v-12.8h-12.8v12.8zM320 181.76h12.8v-12.8h-12.8v12.8zM307.2 168.96h12.8v-12.8h-12.8v12.8zM294.4 156.16h12.8v-12.8h-12.8v12.8zM281.6 143.36h12.8v-12.8h-12.8v12.8zM268.8 130.56h12.8v-12.8h-12.8v12.8zM256 117.76h12.8v-12.8h-12.8v12.8zM243.2 104.96h12.8v-12.8h-12.8v12.8zM230.4 92.16h12.8v-12.8h-12.8v12.8zM217.6 79.36h12.8v-12.8h-12.8v12.8zM204.8 66.56h12.8v-12.8h-12.8v12.8zM192 53.76h12.8v-12.8h-12.8v12.8zM179.2 40.96h12.8v-12.8h-12.8v12.8zM166.4 28.16h12.8v-12.8h-12.8v12.8zM153.6 15.36h12.8v-12.8h-12.8v12.8zM140.8 2.56h12.8v-12.8h-12.8v12.8zM128-10.24h12.8v-12.8h-12.8v12.8zM179.2 424.96h12.8v-12.8h-12.8v12.8zM192 412.16h12.8v-12.8h-12.8v12.8zM204.8 399.36h12.8v-12.8h-12.8v12.8zM217.6 386.56h12.8v-12.8h-12.8v12.8zM230.4 373.76h12.8v-12.8h-12.8v12.8zM128 476.16h12.8v-12.8h-12.8v12.8zM140.8 463.36h12.8v-12.8h-12.8v12.8zM153.6 450.56h12.8v-12.8h-12.8v12.8zM166.4 437.76h12.8v-12.8h-12.8v12.8zM243.2 360.96h12.8v-12.8h-12.8v12.8zM256 348.16h12.8v-12.8h-12.8v12.8zM268.8 335.36h12.8v-12.8h-12.8v12.8zM281.6 322.56h12.8v-12.8h-12.8v12.8zM294.4 309.76h12.8v-12.8h-12.8v12.8zM307.2 296.96h12.8v-12.8h-12.8v12.8zM320 284.16h12.8v-12.8h-12.8v12.8zM332.8 271.36h12.8v-12.8h-12.8v12.8zM345.6 258.56h12.8v-12.8h-12.8v12.8zM358.4 245.76h12.8v-12.8h-12.8v12.8z" />
<glyph unicode="&#xe60c;" d="M249.6 232.96h12.8v-12.8h-12.8v12.8zM236.8 220.16h12.8v-12.8h-12.8v12.8zM224 207.36h12.8v-12.8h-12.8v12.8zM211.2 194.56h12.8v-12.8h-12.8v12.8zM198.4 181.76h12.8v-12.8h-12.8v12.8zM185.6 168.96h12.8v-12.8h-12.8v12.8zM172.8 156.16h12.8v-12.8h-12.8v12.8zM160 143.36h12.8v-12.8h-12.8v12.8zM147.2 130.56h12.8v-12.8h-12.8v12.8zM134.4 117.76h12.8v-12.8h-12.8v12.8zM121.6 104.96h12.8v-12.8h-12.8v12.8zM108.8 92.16h12.8v-12.8h-12.8v12.8zM96 79.36h12.8v-12.8h-12.8v12.8zM83.2 66.56h12.8v-12.8h-12.8v12.8zM70.4 53.76h12.8v-12.8h-12.8v12.8zM57.6 40.96h12.8v-12.8h-12.8v12.8zM44.8 28.16h12.8v-12.8h-12.8v12.8zM57.6 424.96h12.8v-12.8h-12.8v12.8zM70.4 412.16h12.8v-12.8h-12.8v12.8zM83.2 399.36h12.8v-12.8h-12.8v12.8zM96 386.56h12.8v-12.8h-12.8v12.8zM108.8 373.76h12.8v-12.8h-12.8v12.8zM44.8 437.76h12.8v-12.8h-12.8v12.8zM121.6 360.96h12.8v-12.8h-12.8v12.8zM134.4 348.16h12.8v-12.8h-12.8v12.8zM147.2 335.36h12.8v-12.8h-12.8v12.8zM160 322.56h12.8v-12.8h-12.8v12.8zM172.8 309.76h12.8v-12.8h-12.8v12.8zM185.6 296.96h12.8v-12.8h-12.8v12.8zM198.4 284.16h12.8v-12.8h-12.8v12.8zM211.2 271.36h12.8v-12.8h-12.8v12.8zM224 258.56h12.8v-12.8h-12.8v12.8zM236.8 245.76h12.8v-12.8h-12.8v12.8zM262.4 220.16h12.8v-12.8h-12.8v12.8zM275.2 207.36h12.8v-12.8h-12.8v12.8zM288 194.56h12.8v-12.8h-12.8v12.8zM300.8 181.76h12.8v-12.8h-12.8v12.8zM313.6 168.96h12.8v-12.8h-12.8v12.8zM326.4 156.16h12.8v-12.8h-12.8v12.8zM339.2 143.36h12.8v-12.8h-12.8v12.8zM352 130.56h12.8v-12.8h-12.8v12.8zM364.8 117.76h12.8v-12.8h-12.8v12.8zM377.6 104.96h12.8v-12.8h-12.8v12.8zM390.4 92.16h12.8v-12.8h-12.8v12.8zM403.2 79.36h12.8v-12.8h-12.8v12.8zM416 66.56h12.8v-12.8h-12.8v12.8zM428.8 53.76h12.8v-12.8h-12.8v12.8zM441.6 40.96h12.8v-12.8h-12.8v12.8zM454.4 28.16h12.8v-12.8h-12.8v12.8zM441.6 424.96h12.8v-12.8h-12.8v12.8zM428.8 412.16h12.8v-12.8h-12.8v12.8zM416 399.36h12.8v-12.8h-12.8v12.8zM403.2 386.56h12.8v-12.8h-12.8v12.8zM390.4 373.76h12.8v-12.8h-12.8v12.8zM454.4 437.76h12.8v-12.8h-12.8v12.8zM377.6 360.96h12.8v-12.8h-12.8v12.8zM364.8 348.16h12.8v-12.8h-12.8v12.8zM352 335.36h12.8v-12.8h-12.8v12.8zM339.2 322.56h12.8v-12.8h-12.8v12.8zM326.4 309.76h12.8v-12.8h-12.8v12.8zM313.6 296.96h12.8v-12.8h-12.8v12.8zM300.8 284.16h12.8v-12.8h-12.8v12.8zM288 271.36h12.8v-12.8h-12.8v12.8zM275.2 258.56h12.8v-12.8h-12.8v12.8zM262.4 245.76h12.8v-12.8h-12.8v12.8z" />
<glyph unicode="&#xe60d;" d="M165.12 298.24h-98.56l98.56-112.64zM199.68 174.080h148.48v147.2h-148.48v-147.2zM243.2 279.040h62.72v-61.44h-62.72v61.44zM99.84 29.44h119.040v139.52h-119.040v-139.52zM143.36 126.72h33.28v-53.76h-33.28v53.76zM252.16 140.8h96v-92.16h-96v92.16zM85.76 418.56h102.4v-93.44h-102.4v93.44zM367.36 261.12h99.84v-106.24h-99.84v106.24zM276.48 418.56h153.6v-83.2h-153.6v83.2z" />
<glyph unicode="&#xe60e;" d="M320 224c0-35.346-28.654-64-64-64s-64 28.654-64 64c0 35.346 28.654 64 64 64s64-28.654 64-64zM445.44 332.8l-180.48 89.6c-6.4 2.56-12.8 2.56-19.2 0l-180.48-89.6c-7.68-3.84-11.52-11.52-11.52-19.2v-179.2c0-7.68 5.12-15.36 11.52-19.2l180.48-89.6c2.56-1.28 6.4-2.56 10.24-2.56s6.4 1.28 10.24 2.56l180.48 89.6c7.68 3.84 11.52 11.52 11.52 19.2v179.2c0 8.96-5.12 16.64-12.8 19.2zM414.72 147.2l-158.72-79.36-158.72 79.36v153.6l158.72 79.36 158.72-79.36v-153.6z" />
<glyph unicode="&#xe60f;" d="M282.88 304.64l-116.48-116.48-29.44 30.72v-90.88h89.6l-29.44 30.72 85.76 85.76 93.44-92.16h84.48v42.24h-66.56zM355.84 94.72h-262.4v258.56h262.4v-29.44h43.52v72.96h-348.16v-345.6h348.16v76.8h-43.52z" />
<glyph unicode="&#xe610;" d="M256 437.76c-117.76 0-213.76-96-213.76-213.76s96-213.76 213.76-213.76 213.76 96 213.76 213.76c0 117.76-96 213.76-213.76 213.76zM295.68 65.28l29.44 52.48-34.56 60.16h-69.12l-34.56-60.16 29.44-52.48c-71.68 16.64-124.16 81.92-124.16 158.72 0 7.68 1.28 15.36 1.28 23.040l16.64-29.44h69.12l34.56 60.16-34.56 60.16h-42.24c29.44 30.72 71.68 49.92 117.76 49.92s88.32-19.2 117.76-49.92h-42.24l-34.56-60.16 34.56-60.16h69.12l16.64 29.44c1.28-7.68 1.28-15.36 1.28-23.040 2.56-76.8-49.92-142.080-121.6-158.72z" />
<glyph unicode="&#xe611;" d="M381.44 126.72h66.56v225.28h-147.2v33.28h-170.24v-62.72h-67.84v-258.56h318.72v62.72zM339.2 106.24h-232.96v172.8h24.32v-152.32h208.64v-20.48zM172.8 321.28v20.48h84.48v-32h148.48v-139.52h-232.96v151.040z" />
<glyph unicode="&#xe612;" d="M322.56 222.72v-51.2h-230.4v-79.36h230.4v-51.2l97.28 94.72zM419.84 355.84h-230.4v51.2l-97.28-94.72 97.28-87.040v51.2h230.4z" />
<glyph unicode="&#xe613;" d="M433.92 231.68c8.96 25.6 1.28 55.040-19.2 72.96-3.84 3.84-7.68 8.96-7.68 14.080-5.12 26.88-26.88 47.36-53.76 53.76-5.12 1.28-10.24 3.84-14.080 7.68-17.92 20.48-47.36 28.16-72.96 19.2-5.12-1.28-11.52-1.28-16.64 0-25.6 8.96-55.040 0-72.96-19.2-3.84-3.84-8.96-7.68-14.080-7.68-26.88-5.12-47.36-26.88-53.76-53.76-1.28-5.12-3.84-10.24-7.68-14.080-20.48-17.92-28.16-47.36-19.2-72.96 1.28-5.12 1.28-11.52 0-16.64-8.96-25.6-1.28-55.040 19.2-72.96 3.84-3.84 7.68-8.96 7.68-14.080 5.12-26.88 26.88-47.36 53.76-53.76 5.12-1.28 10.24-3.84 14.080-7.68 17.92-20.48 47.36-28.16 72.96-19.2 5.12 1.28 11.52 1.28 16.64 0 6.4-2.56 14.080-3.84 21.76-3.84 19.2 0 38.4 8.96 51.2 23.040 3.84 3.84 8.96 7.68 14.080 7.68 26.88 5.12 47.36 26.88 53.76 53.76 1.28 5.12 3.84 10.24 7.68 14.080 20.48 17.92 28.16 47.36 19.2 72.96-2.56 6.4-2.56 11.52 0 16.64zM392.96 202.24c3.84-10.24 0-20.48-7.68-28.16-11.52-10.24-17.92-23.040-21.76-37.12-2.56-10.24-10.24-17.92-20.48-20.48-14.080-2.56-26.88-10.24-37.12-21.76-6.4-7.68-17.92-10.24-28.16-7.68-6.4 2.56-14.080 3.84-21.76 3.84s-14.080-1.28-21.76-3.84c-10.24-3.84-21.76 0-28.16 7.68-10.24 11.52-23.040 17.92-37.12 21.76-10.24 2.56-17.92 10.24-20.48 20.48-2.56 14.080-10.24 26.88-21.76 37.12-7.68 7.68-10.24 17.92-7.68 28.16 5.12 14.080 5.12 29.44 0 43.52-3.84 10.24 0 20.48 7.68 28.16 11.52 10.24 17.92 23.040 21.76 37.12 2.56 10.24 10.24 17.92 20.48 20.48 14.080 2.56 26.88 10.24 37.12 21.76 6.4 7.68 17.92 10.24 28.16 7.68 14.080-5.12 29.44-5.12 43.52 0 10.24 3.84 21.76 0 28.16-7.68 10.24-11.52 23.040-17.92 37.12-21.76 10.24-2.56 17.92-10.24 20.48-20.48 2.56-14.080 10.24-26.88 21.76-37.12 7.68-7.68 10.24-17.92 7.68-28.16-5.12-14.080-5.12-29.44 0-43.52zM217.6 279.040c0-11.311-9.169-20.48-20.48-20.48s-20.48 9.169-20.48 20.48c0 11.311 9.169 20.48 20.48 20.48s20.48-9.169 20.48-20.48zM270.080 209.92c0-11.311-9.169-20.48-20.48-20.48s-20.48 9.169-20.48 20.48c0 11.311 9.169 20.48 20.48 20.48s20.48-9.169 20.48-20.48zM311.040 284.16c0-11.311-9.169-20.48-20.48-20.48s-20.48 9.169-20.48 20.48c0 11.311 9.169 20.48 20.48 20.48s20.48-9.169 20.48-20.48zM363.52 199.68c0-11.311-9.169-20.48-20.48-20.48s-20.48 9.169-20.48 20.48c0 11.311 9.169 20.48 20.48 20.48s20.48-9.169 20.48-20.48zM296.96 138.24c0-11.311-9.169-20.48-20.48-20.48s-20.48 9.169-20.48 20.48c0 11.311 9.169 20.48 20.48 20.48s20.48-9.169 20.48-20.48zM195.84 179.2c0-11.311-9.169-20.48-20.48-20.48s-20.48 9.169-20.48 20.48c0 11.311 9.169 20.48 20.48 20.48s20.48-9.169 20.48-20.48z" />
<glyph unicode="&#xe614;" d="M256 355.84c-72.96 0-131.84-58.88-131.84-131.84s58.88-131.84 131.84-131.84 131.84 58.88 131.84 131.84-58.88 131.84-131.84 131.84zM299.52 281.6h-20.48c-8.96 0-8.96-1.28-8.96-8.96v-23.040h30.72l-3.84-32h-28.16v-81.92h-34.56v81.92h-23.040v32h23.040v30.72c0 16.64 12.8 32 34.56 32h30.72v-30.72z" />
<glyph unicode="&#xe615;" d="M79.36 192v-119.040h217.6v-76.8l145.92 140.8-133.12 119.040h122.88v119.040h-217.6v76.8l-145.92-140.8 133.12-119.040h-122.88zM340.48 148.48v21.76l39.68-34.56-39.68-38.4v19.2h-217.6v33.28h217.6zM171.52 299.52v-21.76l-39.68 34.56 39.68 38.4v-19.2h217.6v-33.28h-217.6zM215.040 256h83.2v-64h-83.2v64z" />
<glyph unicode="&#xe616;" d="M72.96 106.24h2.56l81.92-64h271.36l29.44 107.52h-52.48l-69.12 238.080v60.16l-230.4-299.52h-85.76l52.48-42.24zM395.52 84.48h-224l-26.88 21.76h257.28l-6.4-21.76zM360.96 148.48h-24.32v85.76l24.32-85.76zM293.12 322.56v-174.080h-133.12l133.12 174.080z" />
<glyph unicode="&#xe617;" d="M440.32 224c0 102.4-81.92 184.32-184.32 184.32s-184.32-81.92-184.32-184.32c0-102.4 83.2-184.32 184.32-184.32 102.4 0 184.32 81.92 184.32 184.32zM121.6 224c0 74.24 60.16 134.4 134.4 134.4s134.4-60.16 134.4-134.4c0-74.24-60.16-134.4-134.4-134.4s-134.4 60.16-134.4 134.4z" />
<glyph unicode="&#xe618;" d="M367.36 378.88l-46.080 46.080-215.040-215.040 3.84-88.32 88.32-5.12 215.040 215.040-46.080 47.36zM181.76 161.28l-29.44 1.28-1.28 1.28-1.28 29.44 113.92 113.92 32-32-113.92-113.92zM326.4 304.64l-32 32 26.88 28.16 33.28-33.28-28.16-26.88zM381.44 16.64v49.92h-284.16v-49.92z" />
<glyph unicode="&#xe619;" d="M103.68 25.6h305.92v302.080l-94.72 94.72h-211.2v-396.8zM145.92 378.88h149.76l70.4-70.4v-240.64h-220.16v311.040zM175.36 288h157.44v-37.12h-157.44v37.12zM175.36 216.32h157.44v-37.12h-157.44v37.12zM250.88 151.040h83.2v-37.12h-83.2v37.12z" />
<glyph unicode="&#xe61a;" d="M248.32 248.32h-199.68v-190.72h199.68v190.72zM206.080 101.12h-113.92v103.68h113.92v-103.68zM206.080 332.8c0-31.811-25.788-57.6-57.6-57.6s-57.6 25.788-57.6 57.6c0 31.811 25.788 57.6 57.6 57.6s57.6-25.788 57.6-57.6zM401.92 360.96l-145.92-140.8 145.92-129.28v74.24h81.92v119.040h-81.92v76.8zM441.6 240.64v-33.28h-81.92v-21.76l-39.68 35.84 39.68 38.4v-19.2h81.92z" />
<glyph unicode="&#xe61b;" d="M486.4 224c0-35.346-28.654-64-64-64s-64 28.654-64 64c0 35.346 28.654 64 64 64s64-28.654 64-64zM195.84 84.48l139.52 139.52-139.52 139.52zM153.6 288h-126.72v-128h126.72v128zM110.080 203.52h-40.96v40.96h40.96v-40.96z" />
<glyph unicode="&#xe61c;" d="M53.76 327.68v-206.080l11.52-6.4 180.48-89.6 10.24-6.4 8.96 5.12c0 0 0 0 0 0l80.64 40.96 111.36 56.32v204.8l-200.96 102.4-202.24-101.12zM97.28 279.040l136.96-67.84v-131.84l-136.96 67.84v131.84zM277.76 211.2l136.96 69.12v-133.12l-136.96-69.12v133.12zM256 248.32l-131.84 65.28 131.84 66.56 131.84-66.56-131.84-65.28z" />
<glyph unicode="&#xe61d;" d="M256 375.040c-16.64 14.080-40.96 23.040-69.12 23.040h-154.88v-302.080h154.88c30.72 0 47.36-14.080 47.36-23.040h43.52c0 10.24 16.64 23.040 47.36 23.040h154.88v300.8h-154.88c-28.16 0-52.48-7.68-69.12-21.76zM234.24 129.28c-14.080 6.4-29.44 8.96-47.36 8.96h-111.36v216.32h112.64c30.72 0 47.36-14.080 47.36-23.040v-202.24zM436.48 138.24h-112.64c-17.92 0-33.28-3.84-47.36-8.96v202.24c0 10.24 16.64 23.040 47.36 23.040h112.64v-216.32z" />
<glyph unicode="&#xe61e;" d="M212.48 332.8c0-31.811-25.788-57.6-57.6-57.6s-57.6 25.788-57.6 57.6c0 31.811 25.788 57.6 57.6 57.6s57.6-25.788 57.6-57.6zM299.52 248.32h156.16v-189.44h-156.16v189.44zM435.2 332.8c0-31.811-25.788-57.6-57.6-57.6s-57.6 25.788-57.6 57.6c0 31.811 25.788 57.6 57.6 57.6s57.6-25.788 57.6-57.6zM254.72 248.32h-199.68v-190.72h199.68v190.72zM212.48 101.12h-113.92v103.68h113.92v-103.68z" />
<glyph unicode="&#xe61f;" d="M410.88 350.72c-26.88 26.88-62.72 40.96-101.12 40.96s-74.24-15.36-101.12-42.24c-26.88-25.6-42.24-62.72-42.24-99.84s15.36-74.24 42.24-101.12c26.88-26.88 62.72-42.24 101.12-42.24 29.44 0 57.6 8.96 81.92 25.6l69.12-69.12 35.84 35.84-69.12 69.12c38.4 55.040 33.28 133.12-16.64 183.040zM244.48 183.040c-17.92 17.92-26.88 40.96-26.88 65.28s10.24 48.64 26.88 65.28c17.92 17.92 40.96 26.88 65.28 26.88s48.64-10.24 65.28-26.88c35.84-35.84 35.84-94.72 0-131.84-17.92-17.92-40.96-26.88-65.28-26.88s-48.64 11.52-65.28 28.16zM148.48 256c0-31.811-25.788-57.6-57.6-57.6s-57.6 25.788-57.6 57.6c0 31.811 25.788 57.6 57.6 57.6s57.6-25.788 57.6-57.6z" />
</font>
</defs>
</svg>
